Pravidla fóra Pravidla podpisové politiky Pravidla uploadu Lišta pravidel Hodnocení uživatelů Heslování archivu Vkládání obrázku


Statistiky uživatele: Statistiky fóra:
Vítejte na ForumNO uživateli  Anonymní NEJSTE PŘIHLÁŠEN!! Celkem příspěvků: 167192
Registrován: - Čeká na vás: 0 nových zpráv Celkem témat: 25590
Poslední návštěva:  - Hodnost:  - Celkem členů: 35635
Varování:  - ID uživatele:  - Nejnovějším uživatelem je premda.sedlacek
Celkem příspěvků:  - Registrovat
Reputace:  -

Sledujte nás na FaceBooku!Sledujte nás na Twitteru!    Staň se naším mecenášem - více info
Právě je 24 zář 2018, 17:24


Bookmark and Share

Pravidla fóra


Chovejte se tady prosím slušně a dodržujte všechna pravidla fóra: PRAVIDLA FÓRA, PRAVIDLA UPLOADU. Také prosím používejte VYHLEDÁVÁNÍ, než se na něco zeptáte.



   [ Příspěvek: 1 ] 
 Navždy spolu / Vow, The (2012) 
Autor Zpráva
Pokročilý
Pokročilý
Uživatelský avatar
Registrován: 08 dub 2012, 21:11
Příspěvky: 120
Model telefonu: HTC Sensation 4.0.3, HTC Sense 3.6
Reputace: 9
Příspěvek Navždy spolu / Vow, The (2012)
The Vow 2012 TS XviD Feel-Free + SK Titulky
Obrázek
Obrázek
http://www.csfd.cz/film/281645-navzdy-spolu/


Language:English
IMDb:http://www.imdb.com/title/tt1606389/
Source:INFERNO/INSPiRAL Thanks!
Encoder:Tony

Format : AVI
Format/Info : Audio Video Interleave
File size : 945 MiB
Duration : 1h 39mn
Overall bit rate : 1 328 Kbps

Video
ID : 0
Format : MPEG-4 Visual
Format profile : Advanced Simple@L5
Format settings, BVOP : 2
Format settings, QPel : No
Format settings, GMC : No warppoints
Format settings, Matrix : Default (H.263)
Muxing mode : Packed bitstream
Codec ID : XVID
Codec ID/Hint : XviD
Duration : 1h 39mn
Bit rate : 1 188 Kbps
Width : 624 pixels
Height : 264 pixels
Display aspect ratio : 2.35:1
Frame rate : 29.970 fps
Color space : YUV
Chroma subsampling : 4:2:0
Bit depth : 8 bits
Scan type : Progressive
Compression mode : Lossy
Bits/(Pixel*Frame) : 0.241
Stream size : 846 MiB (89%)
Writing library : XviD 64

Audio
ID : 1
Format : MPEG Audio
Format version : Version 1
Format profile : Layer 3
Mode : Joint stereo
Mode extension : MS Stereo
Codec ID : 55
Codec ID/Hint : MP3
Duration : 1h 39mn
Bit rate mode : Constant
Bit rate : 128 Kbps
Channel(s) : 2 channels
Sampling rate : 44.1 KHz
Compression mode : Lossy
Stream size : 91.1 MiB (10%)
Alignment : Split accross interleaves
Interleave, duration : 33 ms (1.00 video frame)
Interleave, preload duration : 500 ms

Obrázek
http://www.share-rapid.com/stahuj/3476778/the-vow-2012-ts-xvid-feel-free.rar

:lock: NO


Obrázek


09 dub 2012, 16:46
Profil ICQ
Zobrazit příspěvky za předchozí:  Seřadit podle  
   [ Příspěvek: 1 ] 
Bookmark and Share


Kdo je online

Uživatelé procházející toto fórum: Žádní registrovaní uživatelé a 1 návštěvník


Nemůžete zakládat nová témata v tomto fóru
Nemůžete odpovídat v tomto fóru
Nemůžete upravovat své příspěvky v tomto fóru
Nemůžete mazat své příspěvky v tomto fóru
Nemůžete přikládat soubory v tomto fóru



Registrovat FAQ Hledat Přihlásit se
cron


Prohlášení a kontakt:


Každý uživatel nese odpovědnost za své příspěvky!

V případě technických problémů, nebo jiných problémů s fórem kontaktujte tyto administrátory:
R@ptor: raptor@forumno.net, Jeryk: jeryk@forumno.net