Pravidla fóra Pravidla podpisové politiky Pravidla uploadu Lišta pravidel Hodnocení uživatelů Heslování archivu Vkládání obrázku


Statistiky uživatele: Statistiky fóra:
Vítejte na ForumNO uživateli  Anonymní NEJSTE PŘIHLÁŠEN!! Celkem příspěvků: 167192
Registrován: - Čeká na vás: 0 nových zpráv Celkem témat: 25590
Poslední návštěva:  - Hodnost:  - Celkem členů: 35635
Varování:  - ID uživatele:  - Nejnovějším uživatelem je premda.sedlacek
Celkem příspěvků:  - Registrovat
Reputace:  -

Sledujte nás na FaceBooku!Sledujte nás na Twitteru!    Staň se naším mecenášem - více info
Právě je 21 úno 2018, 03:22


Bookmark and Share

Pravidla fóra


Chovejte se tady prosím slušně a dodržujte všechna pravidla fóra: PRAVIDLA FÓRA, PRAVIDLA UPLOADU. Také prosím používejte VYHLEDÁVÁNÍ, než se na něco zeptáte.



   [ Příspěvek: 1 ] 
 Mission Imposible 4: Ghost Protocol (2011) 
Autor Zpráva
Pokročilý
Pokročilý
Uživatelský avatar
Registrován: 08 dub 2012, 21:11
Příspěvky: 120
Model telefonu: HTC Sensation 4.0.3, HTC Sense 3.6
Reputace: 9
Příspěvek Mission Imposible 4: Ghost Protocol (2011)
Mission Impossible Ghost Protocol 2011 DVDSCR AC3 XViD - INSPiRAL + CZ titulky
Obrázek
Obrázek
http://www.csfd.cz/film/245639-mission-impossible-ghost-protocol/


Video
ID : 0
Format : MPEG-4 Visual
Format profile : Advanced Simple@L5
Format settings, BVOP : 2
Format settings, QPel : No
Format settings, GMC : No warppoints
Format settings, Matrix : Default (MPEG)
Muxing mode : Packed bitstream
Codec ID : XVID
Codec ID/Hint : XviD
Duration : 2h 12mn
Bit rate : 1 737 Kbps
Width : 720 pixels
Height : 400 pixels
Display aspect ratio : 16:9
Frame rate : 23.976 fps
Color space : YUV
Chroma subsampling : 4:2:0
Bit depth : 8 bits
Scan type : Progressive
Compression mode : Lossy
Bits/(Pixel*Frame) : 0.252
Stream size : 1.61 GiB (79%)
Writing library : XviD 64

Audio
ID : 1
Format : AC-3
Format/Info : Audio Coding 3
Mode extension : CM (complete main)
Codec ID : 2000
Duration : 2h 12mn
Bit rate mode : Constant
Bit rate : 448 Kbps
Channel(s) : 2 channels
Channel positions : Front: L R
Sampling rate : 48.0 KHz
Bit depth : 16 bits
Compression mode : Lossy
Stream size : 426 MiB (20%)
Alignment : Aligned on interleaves
Interleave, duration : 42 ms (1.00 video frame)
Interleave, preload duration : 512 ms

Obrázek
http://www.share-rapid.com/stahuj/3543910/mission-impossible-ghost-protocol-2011-dvdscr-ac3-xvid-inspiral-part1.rar
http://www.share-rapid.com/stahuj/3544027/mission-impossible-ghost-protocol-2011-dvdscr-ac3-xvid-inspiral-part2.rar
http://www.share-rapid.com/stahuj/3544176/mission-impossible-ghost-protocol-2011-dvdscr-ac3-xvid-inspiral-part3.rar

:lock: NO


Obrázek


09 dub 2012, 16:42
Profil ICQ
Zobrazit příspěvky za předchozí:  Seřadit podle  
   [ Příspěvek: 1 ] 
Bookmark and Share


Kdo je online

Uživatelé procházející toto fórum: Žádní registrovaní uživatelé a 1 návštěvník


Nemůžete zakládat nová témata v tomto fóru
Nemůžete odpovídat v tomto fóru
Nemůžete upravovat své příspěvky v tomto fóru
Nemůžete mazat své příspěvky v tomto fóru
Nemůžete přikládat soubory v tomto fóru



Registrovat FAQ Hledat Přihlásit se
cron


Prohlášení a kontakt:


Každý uživatel nese odpovědnost za své příspěvky!

V případě technických problémů, nebo jiných problémů s fórem kontaktujte tyto administrátory:
R@ptor: raptor@forumno.net, Jeryk: jeryk@forumno.net