Pravidla fóra Pravidla podpisové politiky Pravidla uploadu Lišta pravidel Hodnocení uživatelů Heslování archivu Vkládání obrázku


Statistiky uživatele: Statistiky fóra:
Vítejte na ForumNO uživateli  Anonymní NEJSTE PŘIHLÁŠEN!! Celkem příspěvků: 167192
Registrován: - Čeká na vás: 0 nových zpráv Celkem témat: 25590
Poslední návštěva:  - Hodnost:  - Celkem členů: 35635
Varování:  - ID uživatele:  - Nejnovějším uživatelem je premda.sedlacek
Celkem příspěvků:  - Registrovat
Reputace:  -

Sledujte nás na FaceBooku!Sledujte nás na Twitteru!    Staň se naším mecenášem - více info
Právě je 21 lis 2018, 03:34


Bookmark and Share

Pravidla fóra


Chovejte se tady prosím slušně a dodržujte všechna pravidla fóra: PRAVIDLA FÓRA, PRAVIDLA UPLOADU. Také prosím používejte VYHLEDÁVÁNÍ, než se na něco zeptáte.



   [ Příspěvek: 1 ] 
 Loosies (2012) 
Autor Zpráva
Pokročilý
Pokročilý
Uživatelský avatar
Registrován: 08 dub 2012, 21:11
Příspěvky: 120
Model telefonu: HTC Sensation 4.0.3, HTC Sense 3.6
Reputace: 9
Příspěvek Loosies (2012)
Loosies.2012.DVDRip.XviD-NoGRP + CZ Titulky
Obrázek
Obrázek
http://www.csfd.cz/film/302947-loosies/


General
Complete name : Loosies.2012.DVDRip.XviD-NoGRP.avi
Format : AVI
Format/Info : Audio Video Interleave
File size : 1.37 GiB
Duration : 1h 28mn
Overall bit rate : 2 214 Kbps
Writing library : VirtualDub build 32839/release


Video
ID : 0
Format : MPEG-4 Visual
Format profile : Advanced Simple@L5
Format settings, BVOP : 2
Format settings, QPel : No
Format settings, GMC : No warppoints
Format settings, Matrix : Default (MPEG)
Muxing mode : Packed bitstream
Codec ID : XVID
Codec ID/Hint : XviD
Duration : 1h 28mn
Bit rate : 2 073 Kbps
Width : 720 pixels
Height : 400 pixels
Display aspect ratio : 16:9
Frame rate : 25.000 fps
Color space : YUV
Chroma subsampling : 4:2:0
Bit depth : 8 bits
Scan type : Progressive
Compression mode : Lossy
Bits/(Pixel*Frame) : 0.288
Stream size : 1.29 GiB (94%)
Writing library : XviD 64


Audio
ID : 1
Format : MPEG Audio
Format version : Version 1
Format profile : Layer 3
Codec ID : 55
Codec ID/Hint : MP3
Duration : 1h 28mn
Bit rate mode : Constant
Bit rate : 128 Kbps
Channel(s) : 2 channels
Sampling rate : 44.1 KHz
Compression mode : Lossy
Stream size : 81.3 MiB (6%)
Alignment : Aligned on interleaves
Interleave, duration : 26 ms (0.65 video frame)
Interleave, preload duration : 522 ms

Obrázek
http://www.share-rapid.com/stahuj/3542659/loosies-2012-dvdrip-xvid-nogrp-part1.rar
http://www.share-rapid.com/stahuj/3542765/loosies-2012-dvdrip-xvid-nogrp-part2.rar
http://www.share-rapid.com/stahuj/3542767/loosies-2012-dvdrip-xvid-nogrp-part3.rar

:lock: NO


Obrázek


09 dub 2012, 16:40
Profil ICQ
Zobrazit příspěvky za předchozí:  Seřadit podle  
   [ Příspěvek: 1 ] 
Bookmark and Share


Kdo je online

Uživatelé procházející toto fórum: Žádní registrovaní uživatelé a 1 návštěvník


Nemůžete zakládat nová témata v tomto fóru
Nemůžete odpovídat v tomto fóru
Nemůžete upravovat své příspěvky v tomto fóru
Nemůžete mazat své příspěvky v tomto fóru
Nemůžete přikládat soubory v tomto fóru



Registrovat FAQ Hledat Přihlásit se
cron


Prohlášení a kontakt:


Každý uživatel nese odpovědnost za své příspěvky!

V případě technických problémů, nebo jiných problémů s fórem kontaktujte tyto administrátory:
R@ptor: raptor@forumno.net, Jeryk: jeryk@forumno.net