Pravidla fóra Pravidla podpisové politiky Pravidla uploadu Lišta pravidel Hodnocení uživatelů Heslování archivu Vkládání obrázku


Statistiky uživatele: Statistiky fóra:
Vítejte na ForumNO uživateli  Anonymní NEJSTE PŘIHLÁŠEN!! Celkem příspěvků: 167192
Registrován: - Čeká na vás: 0 nových zpráv Celkem témat: 25590
Poslední návštěva:  - Hodnost:  - Celkem členů: 35635
Varování:  - ID uživatele:  - Nejnovějším uživatelem je premda.sedlacek
Celkem příspěvků:  - Registrovat
Reputace:  -

Sledujte nás na FaceBooku!Sledujte nás na Twitteru!    Staň se naším mecenášem - více info
Právě je 17 srp 2018, 04:23


Bookmark and Share

Pravidla fóra


Chovejte se tady prosím slušně a dodržujte všechna pravidla fóra: PRAVIDLA FÓRA, PRAVIDLA UPLOADU. Také prosím používejte VYHLEDÁVÁNÍ, než se na něco zeptáte.



   [ Příspěvek: 1 ] 
 Vetřelci / Intruders (2011) 
Autor Zpráva
Pokročilý
Pokročilý
Uživatelský avatar
Registrován: 08 dub 2012, 21:11
Příspěvky: 120
Model telefonu: HTC Sensation 4.0.3, HTC Sense 3.6
Reputace: 9
Příspěvek Vetřelci / Intruders (2011)
Intruders.2011.DVDSCR.READNFO.XviD-SiC + SK Titulky
Obrázek
Obrázek
http://www.csfd.cz/film/282529-vetrelci/


General
Complete name : Intruders.2011.SCREENER.READNFO.XviD-SiC.avi
Format : AVI
Format/Info : Audio Video Interleave
Format profile : OpenDML
Format settings : rec
File size : 869 MiB
Duration : 1h 41mn
Overall bit rate : 1 202 Kbps
Writing application : AVI-Mux GUI 1.17.8, Aug 30 2008 12:36:58

Video
ID : 0
Format : MPEG-4 Visual
Format profile : Advanced Simple@L5
Format settings, BVOP : 1
Format settings, QPel : No
Format settings, GMC : No warppoints
Format settings, Matrix : Default (H.263)
Muxing mode : Packed bitstream
Codec ID : XVID
Codec ID/Hint : XviD
Duration : 1h 41mn
Bit rate : 1 006 Kbps
Width : 640 pixels
Height : 272 pixels
Display aspect ratio : 2.35:1
Frame rate : 29.970 fps
Color space : YUV
Chroma subsampling : 4:2:0
Bit depth : 8 bits
Scan type : Progressive
Compression mode : Lossy
Bits/(Pixel*Frame) : 0.193
Stream size : 727 MiB (84%)
Writing library : XviD 64

Audio
ID : 1
Format : MPEG Audio
Format version : Version 1
Format profile : Layer 3
Mode : Joint stereo
Mode extension : MS Stereo
Codec ID : 55
Codec ID/Hint : MP3
Duration : 1h 41mn
Bit rate mode : Constant
Bit rate : 192 Kbps
Channel(s) : 2 channels
Sampling rate : 44.1 KHz
Compression mode : Lossy
Stream size : 139 MiB (16%)
Alignment : Aligned on interleaves
Interleave, duration : 719 ms (21.54 video frames)
Interleave, preload duration : 208 ms
Title : intruders
Writing library : LAME3.98r
Encoding settings : -m j -V 4 -q 2 -lowpass 18.6 -b 192

Obrázek
http://www.share-rapid.com/stahuj/3571659/intruders-2011-dvdscr-readnfo-xvid-sic.rar

:lock: NO


Obrázek


09 dub 2012, 16:35
Profil ICQ
Zobrazit příspěvky za předchozí:  Seřadit podle  
   [ Příspěvek: 1 ] 
Bookmark and Share


Kdo je online

Uživatelé procházející toto fórum: Žádní registrovaní uživatelé a 1 návštěvník


Nemůžete zakládat nová témata v tomto fóru
Nemůžete odpovídat v tomto fóru
Nemůžete upravovat své příspěvky v tomto fóru
Nemůžete mazat své příspěvky v tomto fóru
Nemůžete přikládat soubory v tomto fóru



Registrovat FAQ Hledat Přihlásit se
cron


Prohlášení a kontakt:


Každý uživatel nese odpovědnost za své příspěvky!

V případě technických problémů, nebo jiných problémů s fórem kontaktujte tyto administrátory:
R@ptor: raptor@forumno.net, Jeryk: jeryk@forumno.net